Películas Series Zona Anime Dibus & Animación Música Documentales Juegos Software Zona Deportiva Ebooks Periódicos y Revistas Zona TV Zona Móvil Fotografía Digital

+ Responder tema
+ Crear nuevo tema
Resultados 1 al 1 de 1

Tema: Dead 7 [2016 DVDRIP Castellano Terror]

  1. #1
    Mazinger Z Avatar de M_A_D
    Fecha de ingreso
    16-08-2016
    Mensajes
    727
    Gracias
    0
    Agradecido: 59 veces en 54 mensajes.
    Tiempo Conectado
    1 d 6 h 56 m
    Max. Tiempo Conectado
    1 m
    Mencionado
    0 Mensaje(s)
    Etiquetado
    0 Tema(s)
    Puntos de Reputación: 11
    Poder de Reputación
    3

    Reputación

     

    Predeterminado Dead 7 [2016 DVDRIP Castellano Terror]



    Título original
    Dead 7aka
    Año
    2016
    Duración
    87 min.
    País
    Estados Unidos Estados Unidos
    Dirección
    Danny Roew
    Guion
    Sawyer Perry (Historia: Nick Carter)
    Música
    Bryan Shackle
    Fotografía
    Eric Gustavo Petersen
    Reparto
    Nick Carter, Joey Fatone, A.J. McLean, Howie Dorough, Carrie Keagan, Lauren Kitt Carter, Chris Kirkpatrick, Jeff Timmons, Erik-Michael Estrada, Debra Wilson, Chloe Lattanzi, Frenchie Davis, Dylan Vox, Art Alexakis, Dan Miller, Jacob Underwood
    Productora
    The Asylum
    Género
    Western. Terror | Zombis
    Sinopsis
    Se centrará en una banda de forajidos del salvaje oeste que al ir a robar un banco se encontrarán luchando por sus vidas contra un pueblo lleno de zombis.

    Format/Info : Audio Video Interleave
    File size : 981 MiB
    Duration : 1 h 30 min
    Overall bit rate : 1 522 kb/s
    Movie name : Dead 7 DVDRip
    Writing application : Lavf56.9.100

    Video
    ID : 0
    Format : MPEG-4 Visual
    Format profile : Advanced Simple@L5
    Format settings : BVOP2
    Format settings, BVOP : 2
    Format settings, QPel : No
    Format settings, GMC : No warppoints
    Format settings, Matrix : Default (MPEG)
    Muxing mode : Packed bitstream
    Codec ID : XVID
    Codec ID/Hint : XviD
    Duration : 1 h 28 min
    Bit rate : 1 083 kb/s
    Width : 720 pixels
    Height : 400 pixels
    Display aspect ratio : 16:9
    Frame rate : 23.976 (24000/1001) FPS
    Original frame rate : 23.976 (23976/1000) FPS
    Color space : YUV
    Chroma subsampling : 4:2:0
    Bit depth : 8 bits
    Scan type : Progressive
    Compression mode : Lossy
    Bits/(Pixel*Frame) : 0.157
    Stream size : 685 MiB (70%)
    Writing library : XviD 64

    Audio
    ID : 1
    Format : AC-3
    Format/Info : Audio Coding 3
    Codec ID : 2000
    Duration : 1 h 30 min
    Bit rate mode : Constant
    Bit rate : 448 kb/s
    Channel(s) : 2 channels
    Channel positions : Front: L R
    Sampling rate : 48.0 kHz
    Frame rate : 31.250 FPS (1536 SPF)
    Bit depth : 16 bits
    Compression mode : Lossy
    Stream size : 289 MiB (29%)
    Alignment : Aligned on interleaves
    Interleave, duration : 31 ms (0.75 video frame)
    Service kind : Complete Main

    Sólo los usuarios registrados pueden ver los enlaces. Si quieres ver los enlaces,

  2. El Siguiente Usuario Agradeció a M_A_D Por Este Mensaje:

    zayex (26-08-2018)

+ Responder tema
+ Crear nuevo tema

Visitors found this page by searching for:

Permisos de publicación

  • No puedes crear nuevos temas
  • No puedes responder temas
  • No puedes subir archivos adjuntos
  • No puedes editar tus mensajes
Scroll To Top Scroll To Center Scroll To Bottom