Título original
Cars 2
Año
2011
Duración
113 min.
País
Estados Unidos Estados Unidos
Dirección
John Lasseter, Brad Lewis
Guion
Ben Queen (Historia: John Lasseter, Brad Lewis, Dan Fogelman)
Música
Michael Giacchino
Fotografía
Jeremy Lasky
Reparto
Animation
Productora
Pixar Animation Studios / Walt Disney Pictures
Género
Animación. Aventuras. Comedia. Infantil | Coches / Automovilismo. Espionaje. Secuela. 3-D. Pixar
Grupos
Pixar (Películas) | Cars (Pixar) Novedad
Web oficial
Sólo los usuarios registrados pueden ver los enlaces. Si quieres ver los enlaces,
Sinopsis
Rayo McQueen y su amigo, la grúa Mate, viajan al extranjero para participar en el primer Campeonato Mundial en el que se decidirá cuál es el coche más rápido del planeta. La primera escala es Tokio (Japón), donde Mate tendrá que convertirse en un espía secreto al verse envuelto inesperadamente en un caso de espionaje internacional, que lo llevará a París y a Londres. También vivirán una aventura de proporciones épicas al viajar a Porto Corsa (Italia), para disputar el Campeonato. Sin embargo, los dos tendrán que renunciar a los placeres de la Riviera italiana -yates, playas y pasta al pesto- ya que Mate está muy ocupado con su labor de espía, mientras que McQueen compite contra los mejores coches del mundo.

Format : AVI
Format/Info : Audio Video Interleave
Format profile : OpenDML
File size : 1.48 GiB
Duration : 1 h 47 min
Overall bit rate : 1 986 kb/s
Movie name : Cars 2
Writing application : Lavf56.9.100

Video
ID : 0
Format : MPEG-4 Visual
Format profile : Advanced Simple@L5
Format settings : BVOP2
Format settings, BVOP : 2
Format settings, QPel : No
Format settings, GMC : No warppoints
Format settings, Matrix : Default (MPEG)
Muxing mode : Packed bitstream
Codec ID : XVID
Codec ID/Hint : XviD
Duration : 1 h 47 min
Bit rate : 1 526 kb/s
Width : 720 pixels
Height : 304 pixels
Display aspect ratio : 2.35:1
Frame rate : 23.976 (24000/1001) FPS
Original frame rate : 23.976 (23976/1000) FPS
Color space : YUV
Chroma subsampling : 4:2:0
Bit depth : 8 bits
Scan type : Progressive
Compression mode : Lossy
Bits/(Pixel*Frame) : 0.291
Stream size : 1.14 GiB (77%)
Writing library : XviD 64

Audio
ID : 1
Format : AC-3
Format/Info : Audio Coding 3
Codec ID : 2000
Duration : 1 h 47 min
Bit rate mode : Constant
Bit rate : 448 kb/s
Channel(s) : 6 channels
Channel positions : Front: L C R, Side: L R, LFE
Sampling rate : 48.0 kHz
Frame rate : 31.250 FPS (1536 SPF)
Bit depth : 16 bits
Compression mode : Lossy
Stream size : 343 MiB (23%)
Alignment : Aligned on interleaves
Interleave, duration : 32 ms (0.77 video frame)
Service kind : Complete Main

Sólo los usuarios registrados pueden ver los enlaces. Si quieres ver los enlaces,