Título original
Treasure Planet
Año
2002
Duración
95 min.
País
Estados Unidos Estados Unidos
Dirección
John Musker, Ron Clements
Guion
John Musker, Ron Clements, Terry Rossio, Rob Edwards, Ted Elliott (Novela: Robert Louis Stevenson)
Música
James Newton Howard
Fotografía
Animation
Reparto
Animation
Productora
Walt Disney Pictures
Género
Animación. Aventuras. Fantástico. Ciencia ficción. Infantil | Aventura espacial. Piratas. Steampunk
Grupos
Clásicos de Walt Disney | Adaptaciones de Robert Louis Stevenson Novedad
Sinopsis
Jim, popular surfista solar, se enfrenta a una cacería intergaláctica de tesoros. En sus manos cae un legendario mapa que le llevará a buscar la fortuna más grande del Universo. A bordo de un "galeón solar", Jim es el ayudante del cocinero del barco, John Silver (mitad hombre mitad máquina), que le enseña cómo ser un buen explorador del espacio. Jim conoce a un simpático robot llamado BEN (Bio Electro Navegador). Juntos, bajo el mando de la inteligente Capitán Amelia, descubrirán un tesoro inimaginable. Adaptación de la Disney del clásico de Robert Louis Stevenson "La isla del tesoro"

Format : AVI
Format/Info : Audio Video Interleave
File size : 1.06 GiB
Duration : 1 h 31 min
Overall bit rate : 1 652 kb/s
Writing application : VirtualDubMod 1.5.10.2 (build 2540/release)
Writing library : VirtualDubMod build 2540/release

Video
ID : 0
Format : MPEG-4 Visual
Format profile : Advanced Simple@L5
Format settings : BVOP2
Format settings, BVOP : 2
Format settings, QPel : No
Format settings, GMC : No warppoints
Format settings, Matrix : Default (H.263)
Codec ID : XVID
Codec ID/Hint : XviD
Duration : 1 h 31 min
Bit rate : 1 126 kb/s
Width : 704 pixels
Height : 418 pixels
Display aspect ratio : 5:3
Frame rate : 25.000 FPS
Color space : YUV
Chroma subsampling : 4:2:0
Bit depth : 8 bits
Scan type : Progressive
Compression mode : Lossy
Bits/(Pixel*Frame) : 0.153
Stream size : 739 MiB (68%)
Writing library : XviD 1.2.1 (UTC 2008-12-04)

Audio #1
ID : 1
Format : AC-3
Format/Info : Audio Coding 3
Codec ID : 2000
Duration : 1 h 31 min
Bit rate mode : Constant
Bit rate : 256 kb/s
Channel(s) : 6 channels
Channel positions : Front: L C R, Side: L R, LFE
Sampling rate : 48.0 kHz
Frame rate : 31.250 FPS (1536 SPF)
Bit depth : 16 bits
Compression mode : Lossy
Stream size : 168 MiB (15%)
Alignment : Split accross interleaves
Interleave, duration : 40 ms (1.00 video frame)
Interleave, preload duratio : 500 ms
Service kind : Complete Main

Audio #2
ID : 2
Format : AC-3
Format/Info : Audio Coding 3
Codec ID : 2000
Duration : 1 h 31 min
Bit rate mode : Constant
Bit rate : 256 kb/s
Channel(s) : 6 channels
Channel positions : Front: L C R, Side: L R, LFE
Sampling rate : 48.0 kHz
Frame rate : 31.250 FPS (1536 SPF)
Bit depth : 16 bits
Compression mode : Lossy
Stream size : 168 MiB (15%)
Alignment : Split accross interleaves
Interleave, duration : 40 ms (1.00 video frame)
Interleave, preload duratio : 500 ms
Service kind : Complete Main

Sólo los usuarios registrados pueden ver los enlaces. Si quieres ver los enlaces,