Título original
The Happytime Murders
Año
2018
Duración
91 min.
País
Estados Unidos Estados Unidos
Dirección
Brian Henson
Guion
Todd Berger, Dee Robertson
Música
Christopher Lennertz
Fotografía
Mitchell Amundsen
Reparto
Melissa McCarthy, Elizabeth Banks, Maya Rudolph, Joel McHale, Cynthy Wu, Leslie David Baker, Jimmy O. Yang, Colleen Smith, Pamela Mitchell, Mitch Silpa, Brian Palermo, Drew Massey, Dorien Davies, Bill Barretta, Jen Sung, Allison Bills, Brekkan Spens, Ryan Tran, Thelma Gudmunds, Dana Schick
Productora
Coproducción Estados Unidos-Reino Unido; Jim Henson Company / Henson Alternative / On The Day Productions / STX Entertainment / Black Bear Pictures
Género
Comedia. Fantástico | Marionetas. Policíaco. Comedia negra
Sinopsis
En un mundo en el que las marionetas coexisten con los humanos como ciudadanos de segunda clase, un títere que trabaja como detective privado, Phil Phillips, trata de seguir la pista del asesino de su hermano, que amenaza también con eliminar uno por uno a los miembros de un famoso show de los 80. La siguiente en la lista es un viejo amor de Phil, Jenny (Elizabeth Banks), lo que le empuja a pedir ayuda a su antigua compañera de trabajo, la detective Connie Edwards (Melissa McCarthy). La investigación llevará a ambos a un descubrimiento que cambiará para siempre el mundo de los moñecos.


Format : AVI
Format/Info : Audio Video Interleave
Format profile : OpenDML
File size : 1.33 GiB
Duration : 1 h 18 min
Overall bit rate : 2 434 kb/s
Writing application : Lavf53.32.100
Original source form/Name : The.Happytime.Murders

Video
ID : 0
Format : AVC
Format/Info : Advanced Video Codec
Format profile : High@L4.1
Format settings : CABAC / 2 Ref Frames
Format settings, CABAC : Yes
Format settings, ReFrames : 2 frames
Codec ID : H264
Duration : 1 h 18 min
Bit rate : 2 099 kb/s
Width : 720 pixels
Height : 256 pixels
Display aspect ratio : 2.813
Frame rate : 23.976 (24000/1001) FPS
Color space : YUV
Chroma subsampling : 4:2:0
Bit depth : 8 bits
Scan type : Progressive
Bits/(Pixel*Frame) : 0.475
Stream size : 1.15 GiB (86%)
Writing library : x264 core
Color range : Limited
Color primaries : BT.601 NTSC
Transfer characteristics : BT.709
Matrix coefficients : BT.601

Audio
ID : 1
Format : MPEG Audio
Format version : Version 1
Format profile : Layer 3
Format settings : Joint stereo
Codec ID : 55
Codec ID/Hint : MP3
Duration : 1 h 18 min
Bit rate mode : Constant
Bit rate : 320 kb/s
Channel(s) : 2 channels
Sampling rate : 48.0 kHz
Compress mode : Lossy
Stream size : 180 MiB (13%)
Alignment : Aligned on interleaves
Interleave, duration : 24 ms (0.58 video frame)
Writing library : LAME3.99.5

Sólo los usuarios registrados pueden ver los enlaces. Si quieres ver los enlaces,
Sólo los usuarios registrados pueden ver los enlaces. Si quieres ver los enlaces,

ENLACES INTERCAMBIABLES

Sólo los usuarios registrados pueden ver los enlaces. Si quieres ver los enlaces,
Sólo los usuarios registrados pueden ver los enlaces. Si quieres ver los enlaces,
[/cente
[/cente