Título original
The Hurricane Heist
Año
2018
Duración
100 min.
País
Estados Unidos Estados Unidos
Dirección
Rob Cohen
Guion
Carlos David, Jeff Dixon, Anthony Fingleton, Scott Windhauser (Historia: Carlos David, Anthony Fingleton)
Música
Lorne Balfe
Fotografía
Shelly Johnson
Reparto
Toby Kebbell, Maggie Grace, Ryan Kwanten, Ralph Ineson, Ben Cross, Melissa Bolona, Natacha Karam, Christian Contreras, Mark Rhino Smith, Patrick McAuley, Stuart McQuarrie, Brooke Johnston, Ed Birch, Jamie Andrew Cutler, James Barriscale, Jimmy Walker, Moyo Akandé, Mark Basnight, Keith D. Evans, Veselin Troyanov, J.R. Esposito
Productora
Foresight Unlimited / Head Gear Films / Metrol Technology / Parkside Pictures / Tadross Media Group / Windfall Productions
Género
Acción. Thriller | Robos & Atracos. Catástrofes
Sinopsis
Una banda de ladrones intenta realizar un ambicioso robo al Tesoro de Estados Unidos para hacerse con un botín de 600 millones de dólares. Mientras tanto, un huracán categoría 5 se acerca al lugar..

Format : Matroska
Format version : Version 4 / Version 2
File size : 5.91 GiB
Duration : 1 h 42 min
Overall bit rate : 8 232 kb/s
Movie name : Montado por yamil
Encoded date : UTC 2018-08-28 15:22:06
Writing application : mkvmerge v10.0.0 ('To Drown In You') 64bit
Writing library : libebml v1.3.4 + libmatroska v1.4.5

Video
ID : 1
Format : AVC
Format/Info : Advanced Video Codec
Format profile : High@L4.1
Format settings : CABAC / 5 Ref Frames
Format settings, CABAC : Yes
Format settings, ReFrames : 5 frames
Codec ID : V_MPEG4/ISO/AVC
Duration : 1 h 42 min
Bit rate : 6 556 kb/s
Width : 1 920 pixels
Height : 800 pixels
Display aspect ratio : 2.40:1
Frame rate mode : Constant
Frame rate : 23.976 (24000/1001) FPS
Color space : YUV
Chroma subsampling : 4:2:0
Bit depth : 8 bits
Scan type : Progressive
Bits/(Pixel*Frame) : 0.178
Stream size : 4.71 GiB (80%)
Writing library : x264 core 152 r2851 ba24899
Encoding settings : cabac=1 / ref=5 / deblock=1:-3:-3 / analyse=0x3:0x113 / me=umh / subme=11 / psy=1 / psy_rd=1.00:0.00 / mixed_ref=1 / me_range=48 / chroma_me=1 / trellis=2 / 8x8dct=1 / cqm=0 / deadzone=21,11 / fast_pskip=0 / chroma_qp_offset=-2 / threads=16 / lookahead_threads=2 / sliced_threads=0 / nr=0 / decimate=1 / interlaced=0 / bluray_compat=0 / constrained_intra=0 / bframes=5 / b_pyramid=2 / b_adapt=2 / b_bias=0 / direct=1 / weightb=1 / open_gop=0 / weightp=2 / keyint=240 / keyint_min=23 / scenecut=40 / intra_refresh=0 / rc_lookahead=45 / rc=crf / mbtree=1 / crf=20.4 / qcomp=0.70 / qpmin=0 / qpmax=69 / qpstep=4 / vbv_maxrate=62500 / vbv_bufsize=78125 / crf_max=0.0 / nal_hrd=none / filler=0 / ip_ratio=1.40 / aq=1:1.10
Language : Spanish
Default : Yes
Forced : No

Audio #1
ID : 2
Format : DTS
Format/Info : Digital Theater Systems
Codec ID : A_DTS
Duration : 1 h 42 min
Bit rate mode : Constant
Bit rate : 768 kb/s
Channel(s) : 6 channels
Channel positions : Front: L C R, Side: L R, LFE
Sampling rate : 48.0 kHz
Frame rate : 93.750 FPS (512 SPF)
Bit depth : 24 bits
Compression mode : Lossy
Stream size : 565 MiB (9%)
Language : Spanish
Default : No
Forced : No

Audio #2
ID : 3
Format : AC-3
Format/Info : Audio Coding 3
Codec ID : A_AC3
Duration : 1 h 42 min
Bit rate mode : Constant
Bit rate : 448 kb/s
Channel(s) : 6 channels
Channel positions : Front: L C R, Side: L R, LFE
Sampling rate : 48.0 kHz
Frame rate : 31.250 FPS (1536 SPF)
Bit depth : 16 bits
Compression mode : Lossy
Stream size : 329 MiB (5%)
Language : Spanish
Service kind : Complete Main
Default : Yes
Forced : No

Audio #3
ID : 4
Format : AC-3
Format/Info : Audio Coding 3
Codec ID : A_AC3
Duration : 1 h 42 min
Bit rate mode : Constant
Bit rate : 448 kb/s
Channel(s) : 6 channels
Channel positions : Front: L C R, Side: L R, LFE
Sampling rate : 48.0 kHz
Frame rate : 31.250 FPS (1536 SPF)
Bit depth : 16 bits
Compression mode : Lossy
Stream size : 329 MiB (5%)
Language : English
Service kind : Complete Main
Default : No
Forced : No

Text #1
ID : 5
Format : UTF-8
Codec ID : S_TEXT/UTF8
Codec ID/Info : UTF-8 Plain Text
Duration : 1 h 34 min
Bit rate : 0 b/s
Count of elements : 18
Stream size : 554 Bytes (0%)
Language : Spanish
Default : Yes
Forced : No

Text #2
ID : 6
Format : UTF-8
Codec ID : S_TEXT/UTF8
Codec ID/Info : UTF-8 Plain Text
Duration : 1 h 34 min
Bit rate : 53 b/s
Count of elements : 1201
Stream size : 37.1 KiB (0%)
Language : Spanish
Default : No
Forced : No

Text #3
ID : 7
Format : PGS
Muxing mode : zlib
Codec ID : S_HDMV/PGS
Codec ID/Info : Picture based subtitle format used on BDs/HD-DVDs
Duration : 1 h 34 min
Bit rate : 10.3 kb/s
Count of elements : 2402
Stream size : 6.97 MiB (0%)
Language : Spanish
Default : No
Forced : No

Sólo los usuarios registrados pueden ver los enlaces. Si quieres ver los enlaces,
Sólo los usuarios registrados pueden ver los enlaces. Si quieres ver los enlaces,
Sólo los usuarios registrados pueden ver los enlaces. Si quieres ver los enlaces,
Sólo los usuarios registrados pueden ver los enlaces. Si quieres ver los enlaces,
Sólo los usuarios registrados pueden ver los enlaces. Si quieres ver los enlaces,
Sólo los usuarios registrados pueden ver los enlaces. Si quieres ver los enlaces,