Título original
Game Night
Año
2018
Duración
98 min.
País
Estados Unidos Estados Unidos
Dirección
John Francis Daley, Jonathan Goldstein
Guion
Mark Perez
Música
Cliff Martinez
Fotografía
Barry Peterson
Reparto
Jason Bateman, Rachel McAdams, Kyle Chandler, Sharon Horgan, Jesse Plemons, Billy Magnussen, Kylie Bunbury, Lamorne Morris, Danny Huston, Michael C. Hall, Michael Cyril Creighton, Camille Chen, Chelsea Peretti, Jeffrey Wright
Productora
Warner Bros. / Aggregate Films / Davis Entertainment / New Line Cinema
Género
Comedia. Acción | Comedia negra. Comedia absurda. Secuestros / Desapariciones
Sinopsis
Un grupo de amigos que se reúne de forma periódica para pasar una noche de juegos se encuentran una noche tratando de resolver el misterio de un asesinato.

Format : AVI
Format/Info : Audio Video Interleave
File size : 1.79 GiB
Duration : 1 h 40 min
Overall bit rate : 2 554 kb/s
Movie name : Noche De Juegos [BluRayRIP][AC3 5.1 Castellano][Sólo los usuarios registrados pueden ver los enlaces. Si quieres ver los enlaces,
Writing application : VirtualDubMod 1.5.10.2 (build 2540/release)
Writing library : VirtualDubMod build 2540/release

Video
ID : 0
Format : MPEG-4 Visual
Format profile : Advanced Simple@L5
Format settings : BVOP2
Format settings, BVOP : 2
Format settings, QPel : No
Format settings, GMC : No warppoints
Format settings, Matrix : Default (H.263)
Codec ID : XVID
Codec ID/Hint : XviD
Duration : 1 h 40 min
Bit rate : 2 097 kb/s
Width : 720 pixels
Height : 304 pixels
Display aspect ratio : 2.35:1
Frame rate : 23.976 (24000/1001) FPS
Color space : YUV
Chroma subsampling : 4:2:0
Bit depth : 8 bits
Scan type : Progressive
Compression mode : Lossy
Bits/(Pixel*Frame) : 0.400
Stream size : 1.47 GiB (82%)
Writing library : XviD 67

Audio
ID : 1
Format : AC-3
Format/Info : Audio Coding 3
Codec ID : 2000
Duration : 1 h 40 min
Bit rate mode : Constant
Bit rate : 448 kb/s
Channel(s) : 6 channels
Channel positions : Front: L C R, Side: L R, LFE
Sampling rate : 48.0 kHz
Frame rate : 31.250 FPS (1536 SPF)
Bit depth : 16 bits
Compression mode : Lossy
Stream size : 321 MiB (18%)
Alignment : Split accross interleaves
Interleave, duration : 42 ms (1.00 video frame)
Interleave, preload duratio : 500 ms
Service kind : Complete Main

Sólo los usuarios registrados pueden ver los enlaces. Si quieres ver los enlaces,
Sólo los usuarios registrados pueden ver los enlaces. Si quieres ver los enlaces,

ENLACES INTERCAMBIABLES

Sólo los usuarios registrados pueden ver los enlaces. Si quieres ver los enlaces,
Sólo los usuarios registrados pueden ver los enlaces. Si quieres ver los enlaces,