Título original
The After Party
Año
2018
Duración
120 min.
País
Estados Unidos Estados Unidos
Dirección
Ian Edelman
Guion
Ian Edelman
Música
Raphael Saadiq
Fotografía
Damián Acevedo, Dagmar Weaver-Madsen
Reparto
Shelley Hennig, Andy Buckley, Blair Underwood, Teyana Taylor, Amin Joseph, Stephen Rider, Wiz Khalifa, Jordan Rock, Harrison Holzer, Isabella Farrell, Edgar Garcia, Assibey Blake, Chad Mountain, Paugh Shadow, Matt Rogers, Leonys Delossantos, Leon Gonzalez, Laura Lockwood, Faith Logan
Productora
Def Pictures / Defiant Productions / Electric City Entertainment / Hunting Lane Films / Live Nation Productions / Paramount Pictures / WorldStarHipHop / Woven Hand. Distribuida por Netflix
Género
Comedia | Música. Hip Hop
Web oficial
Sólo los usuarios registrados pueden ver los enlaces. Si quieres ver los enlaces,
Sinopsis
Cuando un video de un aspirante a rapero se hace viral, el asunto pone en peligro sus aspiraciones como músico y piensa que su carrera está terminada. Pero una fiesta desenfrenada en Nueva York le brinda una nueva oportunidad para volver a soñar.

Format : Matroska
Format version : Version 4 / Version 2
File size : 3.07 GiB
Duration : 1 h 29 min
Overall bit rate mode : Variable
Overall bit rate : 4 901 kb/s
Movie name : Montado por yamil
Encoded date : UTC 2018-08-24 15:36:45
Writing application : mkvmerge v10.0.0 ('To Drown In You') 64bit
Writing library : libebml v1.3.4 + libmatroska v1.4.5

Video
ID : 1
Format : AVC
Format/Info : Advanced Video Codec
Format profile : Main@L4
Format settings : CABAC / 3 Ref Frames
Format settings, CABAC : Yes
Format settings, ReFrames : 3 frames
Codec ID : V_MPEG4/ISO/AVC
Duration : 1 h 29 min
Bit rate mode : Variable
Bit rate : 3 650 kb/s
Maximum bit rate : 5 475 kb/s
Width : 1 920 pixels
Height : 1 080 pixels
Display aspect ratio : 16:9
Frame rate mode : Constant
Frame rate : 23.976 (24000/1001) FPS
Color space : YUV
Chroma subsampling : 4:2:0
Bit depth : 8 bits
Scan type : Progressive
Bits/(Pixel*Frame) : 0.073
Stream size : 2.27 GiB (74%)
Writing library : x264 core 148 r2715 7e75228
Encoding settings : cabac=1 / ref=3 / deblock=1:0:0 / analyse=0x1:0x111 / me=umh / subme=10 / psy=1 / psy_rd=1.00:0.00 / mixed_ref=1 / me_range=24 / chroma_me=1 / trellis=2 / 8x8dct=0 / cqm=0 / deadzone=21,11 / fast_pskip=1 / chroma_qp_offset=-2 / threads=8 / lookahead_threads=1 / sliced_threads=0 / nr=0 / decimate=1 / interlaced=0 / bluray_compat=0 / stitchable=1 / constrained_intra=0 / bframes=2 / b_pyramid=0 / b_adapt=2 / b_bias=0 / direct=3 / weightb=1 / open_gop=0 / weightp=2 / keyint=48 / keyint_min=25 / scenecut=0 / intra_refresh=0 / rc_lookahead=48 / rc=2pass / mbtree=1 / bitrate=3650 / ratetol=1.0 / qcomp=0.50 / qpmin=6 / qpmax=51 / qpstep=4 / cplxblur=20.0 / qblur=0.5 / vbv_maxrate=5475 / vbv_bufsize=7300 / nal_hrd=vbr / filler=0 / ip_ratio=1.40 / aq=1:1.00
Language : Spanish
Default : Yes
Forced : No

Audio #1
ID : 2
Format : E-AC-3
Format/Info : Enhanced Audio Coding 3
Codec ID : A_EAC3
Duration : 1 h 29 min
Bit rate mode : Constant
Bit rate : 640 kb/s
Channel(s) : 6 channels
Channel positions : Front: L C R, Side: L R, LFE
Sampling rate : 48.0 kHz
Frame rate : 187.500 FPS (256 SPF)
Compression mode : Lossy
Stream size : 411 MiB (13%)
Language : Spanish
Service kind : Complete Main
Default : Yes
Forced : No

Audio #2
ID : 3
Format : E-AC-3
Format/Info : Enhanced Audio Coding 3
Codec ID : A_EAC3
Duration : 1 h 29 min
Bit rate mode : Constant
Bit rate : 640 kb/s
Channel(s) : 6 channels
Channel positions : Front: L C R, Side: L R, LFE
Sampling rate : 48.0 kHz
Frame rate : 187.500 FPS (256 SPF)
Compression mode : Lossy
Stream size : 411 MiB (13%)
Language : English
Service kind : Complete Main
Default : No
Forced : No

Text #1
ID : 4
Format : UTF-8
Codec ID : S_TEXT/UTF8
Codec ID/Info : UTF-8 Plain Text
Duration : 1 h 28 min
Bit rate : 10 b/s
Count of elements : 140
Stream size : 6.81 KiB (0%)
Language : Spanish
Default : Yes
Forced : No

Text #2
ID : 5
Format : UTF-8
Codec ID : S_TEXT/UTF8
Codec ID/Info : UTF-8 Plain Text
Duration : 1 h 24 min
Bit rate : 84 b/s
Count of elements : 1519
Stream size : 51.9 KiB (0%)
Language : Spanish
Default : No
Forced : No

Text #3
ID : 6
Format : UTF-8
Codec ID : S_TEXT/UTF8
Codec ID/Info : UTF-8 Plain Text
Duration : 1 h 22 min
Bit rate : 98 b/s
Count of elements : 1530
Stream size : 59.5 KiB (0%)
Title : SDH
Language : English
Default : No
Forced : No

Sólo los usuarios registrados pueden ver los enlaces. Si quieres ver los enlaces,
Sólo los usuarios registrados pueden ver los enlaces. Si quieres ver los enlaces,
Sólo los usuarios registrados pueden ver los enlaces. Si quieres ver los enlaces,
Sólo los usuarios registrados pueden ver los enlaces. Si quieres ver los enlaces,

ENLACES INTERCAMBIABLES

Sólo los usuarios registrados pueden ver los enlaces. Si quieres ver los enlaces,
Sólo los usuarios registrados pueden ver los enlaces. Si quieres ver los enlaces,
Sólo los usuarios registrados pueden ver los enlaces. Si quieres ver los enlaces,
Sólo los usuarios registrados pueden ver los enlaces. Si quieres ver los enlaces,