Título original
To All the Boys I've Loved Before
Año
2018
Duración
99 min.
País
Estados Unidos Estados Unidos
Dirección
Susan Johnson
Guion
Sofia Alvarez, Annie Neal (Novela: Jenny Han)
Fotografía
Michael Fimognari
Reparto
Lana Condor, Noah Centineo, Janel Parrish, Israel Broussard, Andrew Bachelor, Anna Cathcart, John Corbett, Emilija Baranac, Christian Michael Cooper, Madeleine Arthur, Trezzo Mahoro, Jeb Beach, Kelcey Mawema, June B. Wilde, Joey Pacheco, Hunter Dillon
Productora
Emitida por Netflix; Overbrook Entertainment / Awesomeness Films
Género
Drama. Romance | Drama romántico. Adolescencia. Comedia juvenil
Sinopsis
La vida amorosa de Lara Jean se descontrola cuando las cartas secretas que ha escrito a sus enamorados llegan misteriosamente a manos de sus destinatarios

Format : Matroska
Format version : Version 4 / Version 2
File size : 1.80 GiB
Duration : 1 h 39 min
Overall bit rate mode : Variable
Overall bit rate : 2 586 kb/s
Encoded date : UTC 2018-08-17 08:39:05
Writing application : mkvmerge v6.4.1 ('Omega Point') built on Sep 16 2013 22:05:10
Writing library : libebml v1.3.0 + libmatroska v1.4.1

Video
ID : 1
Format : AVC
Format/Info : Advanced Video Codec
Format profile : Main@L3.1
Format settings : CABAC / 3 Ref Frames
Format settings, CABAC : Yes
Format settings, ReFrames : 3 frames
Codec ID : V_MPEG4/ISO/AVC
Duration : 1 h 39 min
Bit rate mode : Variable
Bit rate : 1 960 kb/s
Maximum bit rate : 2 940 kb/s
Width : 1 280 pixels
Height : 720 pixels
Display aspect ratio : 16:9
Frame rate mode : Constant
Frame rate : 23.976 (24000/1001) FPS
Color space : YUV
Chroma subsampling : 4:2:0
Bit depth : 8 bits
Scan type : Progressive
Bits/(Pixel*Frame) : 0.089
Stream size : 1.32 GiB (73%)
Writing library : x264 core 148 r2715 7e75228
Encoding settings : cabac=1 / ref=3 / deblock=1:0:0 / analyse=0x1:0x111 / me=umh / subme=10 / psy=1 / psy_rd=1.00:0.00 / mixed_ref=1 / me_range=24 / chroma_me=1 / trellis=2 / 8x8dct=0 / cqm=0 / deadzone=21,11 / fast_pskip=1 / chroma_qp_offset=-2 / threads=8 / lookahead_threads=1 / sliced_threads=0 / nr=0 / decimate=1 / interlaced=0 / bluray_compat=0 / stitchable=1 / constrained_intra=0 / bframes=2 / b_pyramid=0 / b_adapt=2 / b_bias=0 / direct=3 / weightb=1 / open_gop=0 / weightp=2 / keyint=48 / keyint_min=25 / scenecut=0 / intra_refresh=0 / rc_lookahead=48 / rc=2pass / mbtree=1 / bitrate=1960 / ratetol=1.0 / qcomp=0.50 / qpmin=6 / qpmax=51 / qpstep=4 / cplxblur=20.0 / qblur=0.5 / vbv_maxrate=2940 / vbv_bufsize=3920 / nal_hrd=vbr / filler=0 / ip_ratio=1.40 / aq=1:1.00
Default : Yes
Forced : No

Audio
ID : 2
Format : E-AC-3
Format/Info : Enhanced Audio Coding 3
Codec ID : A_EAC3
Duration : 1 h 39 min
Bit rate mode : Constant
Bit rate : 640 kb/s
Channel(s) : 6 channels
Channel positions : Front: L C R, Side: L R, LFE
Sampling rate : 48.0 kHz
Frame rate : 187.500 FPS (256 SPF)
Compression mode : Lossy
Stream size : 457 MiB (25%)
Title : Castellano
Language : Spanish
Service kind : Complete Main
Default : Yes
Forced : No
Statistics Tags Issue : mkvmerge v25.0.0 ('Prog Noir') 32-bit 2018-08-17 0723 / mkvmerge v6.4.1 ('Omega Point') built on Sep 16 2013 22:05:10 2018-08-17 08:39:05
FromStats_BitRate : 640000
FromStats_Duration : 01:39:52.736000000
FromStats_FrameCount : 187273
FromStats_StreamSize : 479418880

Text
ID : 3
Format : UTF-8
Codec ID : S_TEXT/UTF8
Codec ID/Info : UTF-8 Plain Text
Title : Castellano [Forzados]
Language : Spanish
Default : Yes
Forced : Yes
Statistics Tags Issue : mkvmerge v25.0.0 ('Prog Noir') 32-bit 2018-08-17 0723 / mkvmerge v6.4.1 ('Omega Point') built on Sep 16 2013 22:05:10 2018-08-17 08:39:05
FromStats_BitRate : 0
FromStats_Duration : 01:38:50.049000000
FromStats_FrameCount : 19
FromStats_StreamSize : 420

Sólo los usuarios registrados pueden ver los enlaces. Si quieres ver los enlaces,
Sólo los usuarios registrados pueden ver los enlaces. Si quieres ver los enlaces,

enlaces intercambiables

Sólo los usuarios registrados pueden ver los enlaces. Si quieres ver los enlaces,
Sólo los usuarios registrados pueden ver los enlaces. Si quieres ver los enlaces,