Título original
3 bodas de másaka
Año
2013
Duración
94 min.
País
España España
Dirección
Javier Ruiz Caldera
Guion
Pablo Alén, Breixo Corral
Música
Javier Rodero
Fotografía
Arnau Valls Colomer
Reparto
Inma Cuesta, Martiño Rivas, Quim Gutiérrez, Paco León, Berto Romero, Rossy de Palma, María Botto, Laura Sánchez, Silvia Abril, Bárbara Santa-Cruz, Bruno Sevilla, Octavi Pujades, Mauro Muñiz de Urquiza, Joaquín Reyes
Productora
Apaches Entertainment / Think Studio / Ciskul / Atresmedia Cine / Antena 3 Films / La Sexta
Género
Romance. Comedia | Comedia romántica. Bodas
Sinopsis
Ruth (Inma Cuesta), una joven investigadora en una universidad, asiste a las sucesivas bodas de sus ex, de los que fueron sus "hombres de su vida", sin que ella consiga encontrar a su media naranja. ¿Hay algo peor que tu ex novio se case con otra y te invite a su boda? Sí, que te pase tres veces en un mes, no saber decir que no, y que el único al que consigas convencer para que te acompañe sea tu nuevo becario. Un alérgico al compromiso, un surfista pasado de rosca y un transexual convertido en pibón... Tres ex novios para tres bodas. Un cóctel explosivo para Ruth, que tendrá que enfrentarse a su pasado y decidir con quién quiere compartir su futuro.

Format : AVI
Format/Info : Audio Video Interleave
Format profile : OpenDML
File size : 1.57 GiB
Duration : 1 h 30 min
Overall bit rate : 2 483 kb/s
Movie name : 3 bodas de mas HDRip
Writing application : Lavf54.63.104

Video
ID : 0
Format : AVC
Format/Info : Advanced Video Codec
Format profile : Main@L3
Format settings : CABAC / 1 Ref Frames
Format settings, CABAC : Yes
Format settings, ReFrames : 1 frame
Codec ID : H264
Duration : 1 h 30 min
Bit rate : 2 023 kb/s
Width : 720 pixels
Height : 304 pixels
Display aspect ratio : 2.35:1
Frame rate : 25.000 FPS
Color space : YUV
Chroma subsampling : 4:2:0
Bit depth : 8 bits
Scan type : Progressive
Bits/(Pixel*Frame) : 0.370
Stream size : 1.28 GiB (81%)
Writing library : x264 core
Color range : Limited
Color primaries : BT.601 NTSC
Transfer characteristics : BT.709
Matrix coefficients : BT.601

Audio
ID : 1
Format : AC-3
Format/Info : Audio Coding 3
Codec ID : 2000
Duration : 1 h 30 min
Bit rate mode : Constant
Bit rate : 448 kb/s
Channel(s) : 6 channels
Channel positions : Front: L C R, Side: L R, LFE
Sampling rate : 48.0 kHz
Frame rate : 31.250 FPS (1536 SPF)
Bit depth : 16 bits
Compression mode : Lossy
Stream size : 290 MiB (18%)
Alignment : Aligned on interleaves
Interleave, duration : 32 ms (0.80 video frame)
Service kind : Complete Main

Sólo los usuarios registrados pueden ver los enlaces. Si quieres ver los enlaces,